website statistics
Warrior.2019.S02E08.All.Enemies.Foreign.and.Domestic.720p.AMZN.WE... > 외국티비 > 인터넷의 시작 더토렌트
홈 > 티비 > 외국티비
외국티비
 [구글검색] 구글에서 더토렌트 검색 - 구글에서 토렌트를 검색하실 때에 검색어 뒤에 더토렌트를 꼭 붙여서 검색하세요.     더토렌트에서 광고중인 웹에 문제가 있다면 상단에 나와 있는 운영자 이메일로 연락 주십시오.     다운로드가 완료될 때까지 저희가 함께하겠습니다. 편안한 시간 되십시오.

웹하드 파일썬

   

   

Warrior.2019.S02E08.All.Enemies.Foreign.and.Domestic.720p.AMZN.WE...

336570_banner_optimized.jpg90249917315647179592.jpg

Code:

Video

336570_banner_optimized.jpg90249917315647179592.jpg

Code:

Video
ID : 1
Format : AVC
Format/Info : Advanced Video Codec
Format profile : [email protected]
Format settings : CABAC / 4 Ref Frames
Format settings, CABAC : Yes
Format settings, Reference frames : 4 frames
Codec ID : V_MPEG4/ISO/AVC
Duration : 44 min 36 s
Bit rate mode : Constant
Bit rate : 3 150 kb/s
Nominal bit rate : 6 000 kb/s
Width : 1 280 pixels
Height : 720 pixels
Display aspect ratio : 16:9
Frame rate mode : Constant
Frame rate : 23.976 (24000/1001) FPS
Color space : YUV
Chroma subsampling : 4:2:0
Bit depth : 8 bits
Scan type : Progressive
Bits/(Pixel*Frame) : 0.143
Stream size : 1 005 MiB (83%)
Default : Yes
Forced : No
Color range : Limited
Color primaries : BT.709
Transfer characteristics : BT.709
Matrix coefficients : BT.709

Audio
ID : 2
Format : E-AC-3
Format/Info : Enhanced AC-3
Commercial name : Dolby Digital Plus
Codec ID : A_EAC3
Duration : 44 min 36 s
Bit rate mode : Constant
Bit rate : 640 kb/s
Channel(s) : 6 channels
Channel layout : L R C LFE Ls Rs
Sampling rate : 48.0 kHz
Frame rate : 31.250 FPS (1536 SPF)
Compression mode : Lossy
Delay relative to video : 6 ms
Stream size : 204 MiB (17%)
Language : English
Service kind : Complete Main
Default : Yes
Forced : No

Text
ID : 3
Format : UTF-8
Codec ID : S_TEXT/UTF8
Codec ID/Info : UTF-8 Plain Text
Duration : 44 min 25 s
Bit rate : 72 b/s
Count of elements : 790
Stream size : 23.5 KiB (0%)
Title : SDH
Language : English
Default : No
Forced : No

Warrior.2019.S02E08.All.Enemies.Foreign.and.Domestic.720p.AMZN.WE...


번역하기: 한국 한국어


<< 이 게시판에서 관련된 자료 목록 >>
 [구글검색] 구글에서 더토렌트 검색 - 구글에서 토렌트를 검색하실 때에 검색어 뒤에 더토렌트를 꼭 붙여서 검색하세요.     더토렌트에서 광고중인 웹에 문제가 있다면 상단에 나와 있는 운영자 이메일로 연락 주십시오.     다운로드가 완료될 때까지 저희가 함께하겠습니다. 편안한 시간 되십시오.

웹하드 파일썬

   

   

현재 인기있는 자료


외국티비 인기글


오늘의 인기글


새댓글


Facebook Twitter GooglePlus KakaoStory NaverBand