website statistics
The Birds (1963) 2160p HDR 5.1 x265 10bit Phun Psyz > 영화 > 검색의 검색 > 인터넷의 시작 더토렌트
홈 > 검색 > 검색의 검색
검색의 검색
 [구글검색] 구글에서 더토렌트 검색 - 구글에서 토렌트를 검색하실 때에 검색어 뒤에 더토렌트를 꼭 붙여서 검색하세요.     더토렌트에서 광고중인 웹에 문제가 있다면 상단에 나와 있는 운영자 이메일로 연락 주십시오.     다운로드가 완료될 때까지 저희가 함께하겠습니다. 편안한 시간 되십시오.

웹하드 파일썬

   

   

   

The Birds (1963) 2160p HDR 5.1 x265 10bit Phun Psyz > 영화
댓글 0 조회 177

The Birds (1963) 2160p HDR 5.1 x265 10bit Phun Psyz > 영화
The Birds (1963) 2160p HDR 5.1 x265 10bit Phun Psyz > 영화
www.imdb.com/title/tt0056869/

A wealthy San Francisco socialite pursues a potential boyfriend to a small Northern California town that slowly takes a turn for the bizarre when birds of all kinds suddenly begin to attack people.

Source: HDRemuX (Remux)

www.imdb.com/title/tt0056869/

A wealthy San Francisco socialite pursues a potential boyfriend to a small Northern California town that slowly takes a turn for the bizarre when birds of all kinds suddenly begin to attack people.

Source: HDRemuX (Remux)



Format : Matroska
Format version : Version 4
File size : 3.01 GiB
Duration : 1 h 59 min
Overall bit rate : 3 608 kb/s

Video
ID : 1
Format : HEVC
Format/Info : High Efficiency Video Coding
Format profile : Main [email protected]@High
Codec ID : V_MPEGH/ISO/HEVC
Duration : 1 h 59 min
Bit rate : 3 247 kb/s
Width : 3 840 pixels
Height : 2 080 pixels
Display aspect ratio : 1.85:1
Frame rate mode : Constant
Frame rate : 23.976 (24000/1001) FPS
Color space : YUV
Chroma subsampling : 4:2:0
Bit depth : 10 bits
Bits/(Pixel*Frame) : 0.017
Stream size : 2.71 GiB (90%)
Writing library : x265 3.2.1+1-b5c86a64bbbe:[Windows][GCC 9.2.0][64 bit] 10bit
Color range : Full
Color primaries : BT.2020
Transfer characteristics : PQ
Matrix coefficients : BT.2020 non-constant

Audio
ID : 2
Format : AC-3
Format/Info : Audio Coding 3
Commercial name : Dolby Digital
Codec ID : A_AC3
Duration : 1 h 59 min
Bit rate mode : Constant
Bit rate : 320 kb/s
Channel(s) : 2 channels
Channel layout : L R
Sampling rate : 48.0 kHz
Frame rate : 31.250 FPS (1536 SPF)
Compression mode : Lossy
Delay relative to video : 9 ms
Stream size : 274 MiB (9%)
Title : Stereo
Language : English

Text
Language : English
Default : No
Forced : No

Menu
00:00:00.000 : :Main Titles
00:01:45.439 : :At the Pet Store
00:09:36.576 : :The Love Birds
00:20:06.539 : :Bodega Bay
00:29:36.441 : :Meeting Mrs. Brenner
00:32:16.601 : :The Chickens Won't Eat
00:40:59.791 : :At Annie's House
00:47:49.533 : :Cathy's Party
00:54:01.905 : :Dinner
00:58:54.197 : :Dan Fawcett's Farm
01:08:17.427 : :The School
01:15:48.544 : :At the Restaurant
01:24:26.395 : :The Gas Station
01:26:19.841 : :The Phone Booth
01:28:02.611 : :Laying Blame
01:29:44.045 : :Where's Cathy?
01:33:56.297 : :Under Siege
01:45:15.643 : :Upstairs
01:51:17.337 : :Evicted
01:56:20.307 : :The Only Way Out

The Birds (1963) 2160p HDR 5.1 x265 10bit Phun Psyz

번역하기: 한국 한국어


순수한 토렌트 포털 토렌트아이


<< 이 게시판에서 관련된 자료 목록 >>
0 Comments     0.0 / 0
 [구글검색] 구글에서 더토렌트 검색 - 구글에서 토렌트를 검색하실 때에 검색어 뒤에 더토렌트를 꼭 붙여서 검색하세요.     더토렌트에서 광고중인 웹에 문제가 있다면 상단에 나와 있는 운영자 이메일로 연락 주십시오.     다운로드가 완료될 때까지 저희가 함께하겠습니다. 편안한 시간 되십시오.

웹하드 도도파일

   

   

   

현재 인기있는 자료


오늘의 인기글


새댓글


Facebook Twitter GooglePlus KakaoStory NaverBand