website statistics
Joe Kidd (1972) ITA-ENG Ac3 2.0 BDRip 1080p H264 [ArMor] > 영화 > 검색의 검색 > 인터넷의 시작 더토렌트
홈 > 검색 > 검색의 검색
검색의 검색
 [구글검색] 구글에서 더토렌트 검색 - 구글에서 토렌트를 검색하실 때에 검색어 뒤에 더토렌트를 꼭 붙여서 검색하세요.     더토렌트에서 광고중인 웹에 문제가 있다면 상단에 나와 있는 운영자 이메일로 연락 주십시오.     다운로드가 완료될 때까지 저희가 함께하겠습니다. 편안한 시간 되십시오.

웹하드 파일마루

   

   

   

Joe Kidd (1972) ITA-ENG Ac3 2.0 BDRip 1080p H264 [ArMor] > 영화
댓글 0 조회 178

Joe Kidd (1972) ITA-ENG Ac3 2.0 BDRip 1080p H264 [ArMor] > 영화
Joe Kidd (1972) ITA-ENG Ac3 2.0 BDRip 1080p H264 [ArMor] > 영화
1LFIXxw.png




Regista: John Sturges
Genere: Western
Anno: 1972
Paese: USA
Durata: 88 min
Distribuzione: CIC - CIC VIDEO



Robert Duvall, Clint Eastwood, Stella Garcia, Paul Koslo, John Saxon, Don Stroud, James Wainwright, Gregory Walcott



Nella zona di Sinola (Nuovo Messico), con il pretesto che gli indigeni non possono dimostrare i loro diritti sulle proprie terre poich챕 i relativi incartamenti sono bruciati in un incendio, i coloni statunitensi si spartiscono delle terre. Mentre i pi첫 modesti peones ricorrono inutilmente alle proteste legali, Luis Chama raccoglie attorno a s챕 una banda e compie rappresaglie, che lo sceriffo Matchell non riesce n챕 ad arginare n챕 a punire.



An ex-bounty hunter reluctantly helps a wealthy landowner and his henchmen track down a Mexican revolutionary leader.

















Regista: John Sturges
Genere: Western
Anno: 1972
Paese: USA
Durata: 88 min
Distribuzione: CIC - CIC VIDEO



Robert Duvall, Clint Eastwood, Stella Garcia, Paul Koslo, John Saxon, Don Stroud, James Wainwright, Gregory Walcott



Nella zona di Sinola (Nuovo Messico), con il pretesto che gli indigeni non possono dimostrare i loro diritti sulle proprie terre poich챕 i relativi incartamenti sono bruciati in un incendio, i coloni statunitensi si spartiscono delle terre. Mentre i pi첫 modesti peones ricorrono inutilmente alle proteste legali, Luis Chama raccoglie attorno a s챕 una banda e compie rappresaglie, che lo sceriffo Matchell non riesce n챕 ad arginare n챕 a punire.



An ex-bounty hunter reluctantly helps a wealthy landowner and his henchmen track down a Mexican revolutionary leader.












General
Unique ID : 239079868446616498034415264322469307687 (0xB3DD1B9716318207A2876BA963352527)
Complete name : Joe Kidd (1972) ITA-ENG Ac3 2.0 BDRip 1080p H264 [ArMor].mkv
Format : Matroska
Format version : Version 4
File size : 5.06 GiB
Duration : 1 h 27 min
Overall bit rate : 8 279 kb/s
Encoded date : UTC 2020-10-28 13:24:40
Writing application : mkvmerge v15.0.0 ('Duel with the Devil') 64-bit
Writing library : libebml v1.3.5 + libmatroska v1.4.5 / Lavf58.29.100

Video
ID : 1
Format : AVC
Format/Info : Advanced Video Codec
Format profile : [email protected]
Format settings : CABAC / 4 Ref Frames
Format settings, CABAC : Yes
Format settings, Reference frames : 4 frames
Codec ID : V_MPEG4/ISO/AVC
Duration : 1 h 27 min
Bit rate : 7 893 kb/s
Width : 1 920 pixels
Height : 816 pixels
Display aspect ratio : 2.35:1
Frame rate mode : Constant
Frame rate : 23.976 (24000/1001) FPS
Color space : YUV
Chroma subsampling : 4:2:0
Bit depth : 8 bits
Scan type : Progressive
Bits/(Pixel*Frame) : 0.210
Stream size : 4.83 GiB (95%)
Writing library : x264 core 157 r2935 545de2f
Encoding settings : cabac=1 / ref=2 / deblock=1:0:0 / analyse=0x1:0x111 / me=hex / subme=6 / psy=1 / psy_rd=1.00:0.00 / mixed_ref=1 / me_range=16 / chroma_me=1 / trellis=1 / 8x8dct=0 / cqm=0 / deadzone=21,11 / fast_pskip=1 / chroma_qp_offset=-2 / threads=18 / lookahead_threads=3 / sliced_threads=0 / nr=0 / decimate=1 / interlaced=0 / bluray_compat=0 / constrained_intra=0 / bframes=3 / b_pyramid=2 / b_adapt=1 / b_bias=0 / direct=1 / weightb=1 / open_gop=0 / weightp=1 / keyint=240 / keyint_min=24 / scenecut=40 / intra_refresh=0 / rc_lookahead=30 / rc=crf / mbtree=1 / crf=20.0 / qcomp=0.60 / qpmin=0 / qpmax=69 / qpstep=4 / vbv_maxrate=20000 / vbv_bufsize=25000 / crf_max=0.0 / nal_hrd=none / filler=0 / ip_ratio=1.40 / aq=1:1.00
Default : Yes
Forced : No
Color range : Limited
Color primaries : BT.709
Transfer characteristics : BT.709
Matrix coefficients : BT.709

Audio #1
ID : 2
Format : AC-3
Format/Info : Audio Coding 3
Commercial name : Dolby Digital
Codec ID : A_AC3
Duration : 1 h 27 min
Bit rate mode : Constant
Bit rate : 192 kb/s
Channel(s) : 2 channels
Channel layout : L R
Sampling rate : 48.0 kHz
Frame rate : 31.250 FPS (1536 SPF)
Compression mode : Lossy
Stream size : 120 MiB (2%)
Title : DTS
Language : Italian
Service kind : Complete Main
Default : Yes
Forced : No

Audio #2
ID : 3
Format : AC-3
Format/Info : Audio Coding 3
Commercial name : Dolby Digital
Codec ID : A_AC3
Duration : 1 h 27 min
Bit rate mode : Constant
Bit rate : 192 kb/s
Channel(s) : 2 channels
Channel layout : L R
Sampling rate : 48.0 kHz
Frame rate : 31.250 FPS (1536 SPF)
Compression mode : Lossy
Stream size : 120 MiB (2%)
Title : DTS
Language : English
Service kind : Complete Main
Default : No
Forced : No




Joe Kidd (1972) ITA-ENG Ac3 2.0 BDRip 1080p H264 [ArMor]

번역하기: 한국 한국어


순수한 토렌트 포털 토렌트아이


<< 이 게시판에서 관련된 자료 목록 >>
0 Comments     0.0 / 0
 [구글검색] 구글에서 더토렌트 검색 - 구글에서 토렌트를 검색하실 때에 검색어 뒤에 더토렌트를 꼭 붙여서 검색하세요.     더토렌트에서 광고중인 웹에 문제가 있다면 상단에 나와 있는 운영자 이메일로 연락 주십시오.     다운로드가 완료될 때까지 저희가 함께하겠습니다. 편안한 시간 되십시오.

웹하드 도도파일

   

   

   

현재 인기있는 자료


오늘의 인기글


새댓글


Facebook Twitter GooglePlus KakaoStory NaverBand